Untouchable | Come Sail Away (Acoustic Piano) | Shamess Shute
extratorrent - A Fan Made Alternative Login   |   Register
Important Information
Registrations are open now
-------------------------------------

Please click here to register with Extratorrent2 to recieve latest updates, add bookmarks and to post comments.

Friends
Friends

1) ProxyFix

Extratorrent2 > Categories > Movies > Playing For Keeps 2012 x264 720p Esub BluRay Dual Audio English Hindi GOPISAHI torrent


Browse Movies torrents

Playing For Keeps 2012 x264 720p Esub BluRay Dual Audio English Hindi GOPISAHI torrent


Download torrent: Download Playing For Keeps 2012 x264 720p Esub BluRay Dual Audio English Hindi GOPISAHI torrent Magnet link Bookmark Torrent: Playing For Keeps 2012 x264 720p Esub BluRay Dual Audio English Hindi GOPISAHI   Playing For Keeps 2012 x264 720p Esub BluRay Dual Audio English Hindi GOPISAHI torrent
Info hash: E4B0DA95D3C57253C9D2361E234D42D79D790F41
Category: Categories > Movies
Trackers:
View all torrent trackers >
Health:
 seeds: 1 ,  leechers: 4 |  Update >
Torrent language: English English
Total Size: 755.1 MB
Files List:
1    View torrent files >
Uploader:
PENDUDESI
Torrent added: September 2, 2018, 5:20 pm
Users rating: ---, not rated. please login to rate.

Download Playing For Keeps 2012 x264 720p Esub BluRay Dual Audio English Hindi GOPISAHI torrent



Torrent Description

http://www.gopisahi.pw/

Format : Matroska

Format version : Version 4 / Version 2

File size : 755 MiB

Duration : 1 h 45 min

Overall bit rate : 1 000 kb/s

Movie name : Playing For Keeps 2012 GOPISAHI


Video

Format : AVC

Format/Info : Advanced Video Codec

Format profile :

Codec ID : V_MPEG4/ISO/AVC

Duration : 1 h 45 min

Bit rate : 828 kb/s

Width : 1 280 pixels

Height : 528 pixels

Display aspect ratio : 2.40:1

Frame rate mode : Constant

Frame rate : 23.976 (24000/1001) FPS

Color space : YUV

Chroma subsampling : 4:2:0

Bit depth : 8 bits

Scan type : Progressive

Bits/(Pixel*Frame) : 0.051

Stream size : 625 MiB (83%)

Title : GOPISAHI

Writing library : x264 core 129 r2245 bc13772


Audio #1

Format : AAC

Duration : 1 h 39 min

Bit rate : 90.9 kb/s

Channel(s) : 6 channels

Channel positions : Front: L C R, Side: L R, LFE

Sampling rate : 44.1 kHz

Frame rate : 43.066 FPS (1024 SPF)

Compression mode : Lossy

Delay relative to video : -83 ms

Stream size : 64.9 MiB (9%)

Title : GOPISAHI

Language : Hindi


Audio #2

Format : AAC

Format/Info : Advanced Audio Codec

Duration : 1 h 45 min

Bit rate : 83.1 kb/s

Channel(s) : 6 channels

Channel positions : Front: L C R, Side: L R, LFE

Sampling rate : 44.1 kHz

Frame rate : 43.066 FPS (1024 SPF)

Compression mode : Lossy

Delay relative to video : -83 ms

Stream size : 62.7 MiB (8%)

Title : GOPISAHI

Language : English


Text

Language : English



Download Playing For Keeps 2012 x264 720p Esub BluRay Dual Audio English Hindi GOPISAHI torrent


Related Torrents


Comments   (please login to add your comment!)


Home - Browse Torrents

Made with love by an Extratorrent Fan!