Akte.X.S11E05.Ghouli.German.DD51.Dubbed.DL.1080p.AmazonHD.x264-TVS | iPad / iPhone | Jacquou, der Rebell (1)
extratorrent - A Fan Made Alternative Login   |   Register
Important Information
Registrations are open now
-------------------------------------

Please click here to register with Extratorrent2 to recieve latest updates, add bookmarks and to post comments.

Friends
Friends

1) ProxyFix

Extratorrent2 > Categories > Movies > Beauty and the Beast (2017) 720p BluRay Hindi DD 5.1Ch - Eng DD 2.0Ch Org ~ PyZ™ torrent


Browse Movies torrents

Beauty and the Beast (2017) 720p BluRay Hindi DD 5.1Ch - Eng DD 2.0Ch Org ~ PyZ™ torrent


Download torrent: Download Beauty and the Beast (2017) 720p BluRay Hindi DD 5.1Ch - Eng DD 2.0Ch Org ~ PyZ™ torrent Magnet link Bookmark Torrent: Beauty and the Beast (2017) 720p BluRay Hindi DD 5.1Ch - Eng DD 2.0Ch Org ~ PyZ™   Beauty and the Beast (2017) 720p BluRay Hindi DD 5.1Ch - Eng DD 2.0Ch Org ~ PyZ™ torrent
Info hash: C690845E40686A3E72F9BC87135DD55CB11F50CD
Category: Categories > Movies
Trackers:
View all torrent trackers >
Health:
 seeds: 0 ,  leechers: 78 |  Update >
Torrent language: English English
Total Size: 1.4 GB
Files List:
1    View torrent files >
Uploader:
PyZ345
Torrent added: June 11, 2018, 6:33 pm
Users rating: ---, not rated. please login to rate.

Download Beauty and the Beast (2017) 720p BluRay Hindi DD 5.1Ch - Eng DD 2.0Ch Org ~ PyZ™ torrent



Torrent Description

Beauty and the Beast (2017) 720p BluRay Hindi DD 5.1Ch - Eng DD 2.0Ch Org ~ PyZ™



General

Format : Matroska
Format version : Version 4 / Version 2
File size : 1.36 GiB
Duration : 2 h 9 min
Overall bit rate : 1 517 kb/s
Movie name : RAVAN™

Video
ID : 1
Format : HEVC
Format/Info : High Efficiency Video Coding
Format profile : @Main
Codec ID : V_MPEGH/ISO/HEVC
Duration : 2 h 9 min
Bit rate : 764 kb/s
Width : 1 280 pixels
Height : 536 pixels
Display aspect ratio : 2.40:1
Frame rate mode : Constant
Frame rate : 23.976 (24000/1001) FPS
Color space : YUV
Chroma subsampling : 4:2:0
Bit depth : 8 bits
Bits/(Pixel*Frame) : 0.046
Stream size : 707 MiB (50%)
Title : Beauty.and.the.Beast.2017.720p.English.Hindi.AC3.DD.5.1.x265.RAVAN™
Writing library : x265 2.3+30-c7b7c736696f:[Windows][GCC 6.3.0][64 bit] 8bit+10bit+12bit
Encoding settings : cpuid=1173503 / frame-threads=6 / numa-pools=20,20 / wpp / no-pmode / no-pme / no-psnr / no-ssim / log-level=2 / input-csp=1 / input-res=1280x536 / interlace=0 / total-frames=185977 / level-idc=41 / high-tier=1 / uhd-bd=0 / ref=3 / no-allow-non-conformance / no-repeat-headers / annexb / no-aud / no-hrd / info / hash=0 / no-temporal-layers / open-gop / min-keyint=23 / keyint=250 / bframes=4 / b-adapt=2 / b-pyramid / bframe-bias=0 / rc-lookahead=20 / lookahead-slices=0 / scenecut=40 / no-intra-refresh / ctu=64 / min-cu-size=8 / no-rect / no-amp / max-tu-size=32 / tu-inter-depth=1 / tu-intra-depth=1 / limit-tu=0 / rdoq-level=0 / dynamic-rd=0.00 / signhide / no-tskip / nr-intra=0 / nr-inter=0 / no-constrained-intra / no-strong-intra-smoothing / max-merge=2 / limit-refs=3 / no-limit-modes / me=2 / subme=2 / merange=57 / temporal-mvp / weightp / no-weightb / no-analyze-src-pics / deblock=-2:-2 / sao / no-sao-non-deblock / rd=3 / no-early-skip / rskip / no-fast-intra / no-tskip-fast / no-cu-lossless / no-b-intra / rdpenalty=0 / psy-rd=0.00 / psy-rdoq=0.00 / no-rd-refine / analysis-mode=0 / no-lossless / cbqpoffs=0 / crqpoffs=0 / rc=crf / crf=25.4 / qcomp=0.60 / qpstep=4 / stats-write=0 / stats-read=0 / vbv-maxrate=19000 / vbv-bufsize=17500 / vbv-init=0.9 / crf-max=0.0 / crf-min=0.0 / ipratio=1.40 / pbratio=1.30 / aq-mode=3 / aq-strength=0.75 / cutree / zone-count=0 / no-strict-cbr / qg-size=32 / no-rc-grain / qpmax=69 / qpmin=0 / sar=0 / overscan=0 / videoformat=5 / range=0 / colorprim=2 / transfer=2 / colormatrix=2 / chromaloc=0 / display-window=0 / max-cll=0,0 / min-luma=0 / max-luma=255 / log2-max-poc-lsb=8 / vui-timing-info / vui-hrd-info / slices=1 / opt-qp-pps / opt-ref-list-length-pps / no-multi-pass-opt-rps / scenecut-bias=0.05 / no-opt-cu-delta-qp / no-aq-motion / no-hdr / no-hdr-opt / refine-level=5 / no-limit-sao
Language : English
Default : Yes
Forced : No

Audio #1
ID : 2
Format : AC-3
Format/Info : Audio Coding 3
Codec ID : A_AC3
Duration : 2 h 9 min
Bit rate mode : Constant
Bit rate : 640 kb/s
Channel(s) : 6 channels
Channel positions : Front: L C R, Side: L R, LFE
Sampling rate : 48.0 kHz
Frame rate : 31.250 FPS (1536 SPF)
Bit depth : 16 bits
Compression mode : Lossy
Stream size : 592 MiB (42%)
Title : RAVAN™
Language : Hindi
Service kind : Complete Main
Default : Yes
Forced : No

Audio #2
ID : 3
Format : AAC
Format/Info : Advanced Audio Codec
Format profile : HE-AAC / LC
Format settings : Explicit
Codec ID : A_AAC-2
Duration : 2 h 9 min
Bit rate : 57.3 kb/s
Channel(s) : 2 channels
Channel positions : Front: L R
Sampling rate : 48.0 kHz / 24.0 kHz
Frame rate : 23.438 FPS (1024 SPF)
Compression mode : Lossy
Delay relative to video : 31 ms
Stream size : 52.9 MiB (4%)
Title : RAVAN™
Language : English
Default : No
Forced : No

Text #1
ID : 4
Format : PGS
Muxing mode : zlib
Codec ID : S_HDMV/PGS
Codec ID/Info : Picture based subtitle format used on BDs/HD-DVDs
Duration : 2 h 8 min
Bit rate : 12.4 kb/s
Count of elements : 4048
Stream size : 11.4 MiB (1%)
Title : RAVAN™
Language : English
Default : Yes
Forced : No

Text #2
ID : 5
Format : PGS
Muxing mode : zlib
Codec ID : S_HDMV/PGS
Codec ID/Info : Picture based subtitle format used on BDs/HD-DVDs
Duration : 2 h 7 min
Bit rate : 41.4 kb/s
Count of elements : 3395
Stream size : 37.7 MiB (3%)
Title : RAVAN™
Language : English
Default : No
Forced : No

Menu
00:00:00.000 : en:00:00:00.000
00:04:36.276 : en:00:04:36.276
00:08:06.528 : en:00:08:06.528
00:11:18.261 : en:00:11:18.261
00:15:21.546 : en:00:15:21.546
00:18:57.386 : en:00:18:57.386
00:25:05.921 : en:00:25:05.921
00:31:41.566 : en:00:31:41.566
00:36:08.708 : en:00:36:08.708
00:42:32.258 : en:00:42:32.258
00:47:01.318 : en:00:47:01.318
00:54:44.990 : en:00:54:44.990
01:00:43.557 : en:01:00:43.557
01:07:40.932 : en:01:07:40.932
01:14:38.224 : en:01:14:38.224
01:19:43.696 : en:01:19:43.696
01:22:02.751 : en:01:22:02.751
01:28:53.370 : en:01:28:53.370
01:34:01.302 : en:01:34:01.302
01:38:10.176 : en:01:38:10.176
01:45:23.692 : en:01:45:23.692
01:49:13.964 : en:01:49:13.964
01:55:54.197 : en:01:55:54.197
01:58:49.497 : en:01:58:49.497

ScreesnShots









Enjoys Guys



Download Beauty and the Beast (2017) 720p BluRay Hindi DD 5.1Ch - Eng DD 2.0Ch Org ~ PyZ™ torrent


Related Torrents


Comments   (please login to add your comment!)


Home - Browse Torrents

Made with love by an Extratorrent Fan!